КАТЕГОРИИ:

Nasha russia 5 сезон скачать бесплатно


 

 

 

 

Сериал Закрытая школа 5 сезон - 1. Кинозал - скачать бесплатно фильм Новая Наша RUSSIA / 5 сезон (2011/SATRip/WEBRip) одним файлом без регистрации. Смотрели: 154. Файл: Формат: AVI (XviD) Качество: SATRip Видео: 1300 kb/s, 704x384 Звук: MP3, 128 kb/s (2 ch) Размер: 200Mb. В оригинале: Наша Russia. Мы живем в самой прекрасной стране на свете, а все остальные страны нам завидуют! Год выпуска: 2006-2011 Страна: Россия Жанр: телепередача, тв-шоу, комедия Продолжительность: 5 сезонов Перевод: Русский (Оригинал) Режиссер: Петр Буслов, МаксимВ этом вы сами можете убедиться, если захотите передачу «Наша Russia» смотреть онлайн. Смотреть онлайн: Наша Russia — Nasha Russia (2006-2011) 1,2,3,4,5 сезоны. Скачали: 486. скачать Вероника. Хроники Франкенштейна (2 сезон). По ссылки скачивается установщик торрент трекера с файлом .torrent. Предлагаем вашему вниманию фильм Наша Russia ( Наша Смотреть онлайн сериал: Наша Russia (Наша Раша) — Nasha Rasha (2006-2011) 1,2,3,4, 5 сезоны. Nasha.Rasha.(5.sezon.

12.seriya.iz.20).2011.XviD.DVDRip.avi - 283.85 Mb Nasha.RashaПохожие: Раздача. Беглецы / Ранэвэйс (1 сезон). Все парни до 27 лет. Скачать. В ролях: Михаил Галустян, Сергей Светлаков, Валерий Магдьяш и др. Наша Раша/Nasha Russia (Сезон 5) (Эпизод 1-15) (2011) WEB-DLRip скачать торрент в хорошем качестве бесплатно Наша Раша 5 сезон 7 серия скачать торрент.

1 Сезон 2 Сезон 3 Сезон 4 Сезон 5 Сезон.Скачать через торрент бесплатно.. Скачать все сезоны сериала бесплатно через торрент. Безусловно, в том Россия, комедия. Скачать себе на ПК. nasha.russia.s05e00.satrip.by.RuUu.avi (250.20 MB)Огромная просьба, оставляйте свои комментарии и оставайтесь на раздаче, если скачали Наша Russia новый 5 сезон (2011) SATRip через торрент бесплатно!Наша Russia (1-5 сезон) (2006-2011) скачать через торрентkinokubik.org/15562-nasha-russon-2006-2011.htmlСкачать фильмы через торрент бесплатно в хорошем качестве » ТВ Передачи » Наша Russia (1-5 сезон) (2006-2011).nasha.rasha.torrent. Потерянное счастье - 6 ноября.Друзья сайта. Управление: [обновить].поможет Вам скачать новые фильмы, торрент фильмы, сериалы, новую музыку бесплатно, soft, программы, бесплатные игры pc, рекомендуем всем быстрый торрент трекер.Описание. Смотреть онлайн сериал: Наша Russia (Наша Раша) — Nasha Rasha (2006-2011) 1,2,3,4, 5 сезоны. Желаем Вам приятного просмотра. Режиссер: Петр Буслов, Максим Пежемский, Дмитрий Ефимович. Продюсер: Артур Джанибекян, Семен Слепаков, Александр Дулерайн. 15.02.2014, 00:57. Скачать бесплатно и без СМС: ЗеркалоЮмор скачать бесплатно: Наша Russia (2011/5 сезон 19 серия /SATRip). Дата добавления: 2013-05-20 15:32:24.С помощью нашего ресурса можно скачать торрент фильмы вы можете совершенно бесплатно и без регистрации. При скачивании этого фильма, Вы можете быть совершенно уверены Новинки видео, музыки и игр качай бесплатно с "Кучи файлов". Кино на любой жанр - фильмы, комедии, боевики, фантастика, мелодрамы, драмы, триллеры, ужасы, мультфильмы, мистика, документальные, концерты Скачать / Download torrent. Наша Russia (5 сезон). кадров/сек Цветовое пространство : YUV Субдискретизация насыщенности : 4:2:0 Битовая глубина : 8 бит Тип развёртки : Прогрессивная Бит/(ПикселиКадры) : 0.182 Размер потока : 164 Мбайт (85) Заголовок : nasharussias05e01[tfile.ru]Скачать бесплатно [4.7 gb]. В этом релизе новогодняя присутствует? Популярные сериалы. [size3]Имя:НАША РАША 1,2,3 сезон Год выхода: 2008 Жанр: Comedy Режиссер: Петр Буслов Автор сценариев: Петр Буслов В ролях: Сергей Светлаков, Михаил Галустян Язык: Русский Размер: 8.22 GB.cimislia.netnasha.rasha.

torrent. Спартак: Месть [2 сезон, 1 серия] / Spartacus: Vengeance [02x01] (2012) WEBRip.Скачать. Юмористически-развлекательный сериал студии Comedy Club Production Скачать бесплатно Новая Наша RUSSIA 5 сезон (2011) SATRip 1 выпуск.Новая Наша RUSSIA 5 сезон 22 серия 14.10.2011 (фрагмент). Жан-Клод Ван Джонсон (1 сезон). Год выхода: 2011 Жанр: Юмористическая телепрограмма Страна: Россия Качество: HDRip Режиссер: Петр Буслов, Максим Пежемский, Дмитрий Ефимович В ролях: Сергей Светлаков и Михаил Галустян. серия 1 Наша Russia 5 сезон (SATRip/2011) (56.53 Mb).Аудио: Кодек: aac, каналы: 1 mono, bit rate: 63 Kbps, частота: 22050 Hz. В ролях: Михаил Галустян, Сергей Светлаков, Валерий Магдьяш и др. Уважаемые пользователи. Вы находитесь на странице раздела с фильмами в формате MP4, где можете скачать фильм Наша Russia (5 сезон) (2011) MP4 на андроид абсолютно бесплатно. При обнаружении битых ссылок, сообщайте, пожалуйста, в комментариях. Скачать все сезоны сериала бесплатно через торрент. Название: Наша Раша (5 сезон, 1-13 серий) [2011, SATRip]. В ролях: Михаил Галустян, Сергей Светлаков, Валерий Магдьяш и др. Наша Russia: Трудовые будни краснодарских пацанов (2006/DVDRip).Три в одном (2017). Фильмы 50-60 годов и Русские сериалы » русские сериалы » Наша Russia 5 сезон (2011) DVDRip. В пятом сезоне популярного сериала «Наша Russia» зрителю предстоит вновь соприкоснуться с главными героями этого сериала, которые по прежнему продолжают интересно шутить, попадать в нестанда.vrator.com - nasha.russia(5.sezon)(2011).torrent. Скачать с сервера напрямую. Скачать Nasha.Rasha.01-05.sezon.(77.serii.iz.77).XviD.2.torrent.Спасибо. Загрузил: okamigo (16 сентября 2011 15:39). Информация о фильме Название: Наша Russia, 77 выпусков из 77 Год выпуска: 2006-2011 Жанр: Комедия, шоу Режиссер: Петр Буслов В ролях: Михаил Галустян, Сергей Светлаков.Однажды в России Сезон 2 (2015) сериал. В 5 сезоне ведь 21 серия, если считать новогоднюю за серию. скачать торрентом » ТВ Передачи » Наша Russia (1-5 сезон) (2006-2011).nasha.rasha.torrent. Язык: RU. [42.97 Kb] (скачан: 1374). 22 серия Год выпуска: 2010 Жанр: Комедия, шоу Выпущено: Россия / ТНТ Режиссер: Петр Буслов В ролях: Сергей Светлаков, МихаилВместо надоедливой рекламы, я прошу Вас поделиться ссылкой на сайт . С уважением, KinoBlok.com! Скачать/Смотреть Фильм Наша Раша/Наша Russia (Сезон 1-5) бесплатно! Новые серии! Новое расписание движения электропоездов.156.37 KB 21 - Iraiz1kvartiribbll.mp3 581.26 KB 22 - Tochno-govno.mp3 208.61 KB 23 - Ycheniiostavilkolach.mp3 68.20 KB 24 - NashaRussia.mp3 Надеюсь, новые герои понравятся не меньше уже известных». Новая наша раша все серии скачать (5 сезон)15 серия - заключительная. Скачать Новая Наша RUSSIA 5 сезон. Скачать Call Of Duty Black Ops III (2015) [Region Free][RUS][RUSSOUND][L] (LT3.0).Наша Russia 5 сезон - продолжение.torrent. Наша Russia ( 5 сезон, 1-21 серия) (2011) SATRip.Если вы скачали архив, то пароль для архива: 00000 (пять нулей). Описание: В новом сезоне Сериалы, комедия. Скачать фильм Наша Russia через торрент бесплантно в хорошем качестве Описание: В новом сезоне появятся новые герои: русские туристы в Турции, оперативники, пенсионеры. Ве они являются типичными жителями конкретного города.Наша Russia 5,наша russia 5,наша russia 5 сезон,nasha russia 5,наша russia 5 скачать,nasha russia 5 сезон,скачать наша russia 5 Раздают: 0 Качают: 0 Скачали: 0.Список файлов входящих в торрент (77). Новая Наша RUSSIA [05x01-10] (2011) DVD-9. Выпущено: Россия Продолжительность: 00:18:45 Перевод: Оригинал (Русский). Добавлен: 10 июля 2012 в 18:32:31 Категория: Фильмы » ТВ-шоуНазвание: Наша Russia Год выхода: 2011 Жанр: Юмористическая передача.Они и многие другие будут смешить нас в новом, премьерном пятом сезоне народной эпопеи "Наша Раша"! Выпущено: Россия Перевод: Оригинал (Русский). На этой странице Вы можете скачать фильм Новая Наша Раша / Наша Russia (5 сезон) бесплатно и без регистрации. Похожие торренты. Страна: Россия Продолжительность: 00:22:00 Перевод: не требуется. Первая серия сезона вышла в эфир 31 декабря в качестве новогоднего подарка, после чего последовало достаточно долгое молчание и вот 13 марта новыеСкачать Наша Раша 6 сезон бесплатно (Наша Russia 6). Категория: Видео » ТВ-ШОУ » Юмористические передачи. Скачать бесплатно без регистрации "Наша RUSSIA (Наша Раша) 6 сезон".Уважаемые посетители сайта EvroBox.Net, у нас на Вы можете совершенно бесплатно скачать Наша RUSSIA (Наша Раша) и при этом не требуется регистрация. Режиссер: Петр Буслов, Максим Пежемский, Дмитрий Ефимович. Файл Кодек: XviD Качество: WEBRip Видео: 720x400, XviD, 1650 kbps Звук: MP3, 2 ch, 128 kbps. О фильме: N-TORRENTS: Пятый сезон, стартовавший 13 марта, поклонники Наша Russia ждали почти 3 года. ТВ-шоу. Здесь Вы можете скачать новую нашу рашу все серии 5-го сезона. Это у нас армия, которую боятся все. В ролях: Михаил Галустян, Сергей Светлаков, Валерий Магдьяш и др. Наша Russia (7 файлов). И, можно сказать, не зря ждали.Скачать торрент Наша Раша бесплатно. Скачать торрент Магнет-ссылка. Сериалы | Новая Наша Russia (5 сезон / 1-15 серия - постоянно обновляется) SATRip/WEBRip.Скачать бесплатно с Letitbit.net Скачать бесплатно с Depositfiles.com Скачать бесплатно с Turbobit.net. Название: Новая Наша Russia Год выхода: 2011 Жанр: ТВ-Шоу Страна: Россия Режиссер: Петр Буслов В ролях: Сергей Светлаков, Михаил Галустян и др. Режиссер: Дмитрий Ефимович, Петр Буслов, Максим Пежемский. На торрент трекере бесплатно и без регистрации вы сможите скачать любые релизы, и посмотреть ОНЛАЙН как новинки кинобит Тип развёртки : Прогрессивная Бит/(ПикселиКадры) : 0.182 Размер потока : 164 Мбайт (85) Заголовок : nasharussias05e01[tfile.ru] Библиотека Описание: "Наша Раша" открывает 5-й сезон! Мы увидим новых героев, среди которых футбольные болельщики, охранникNasha.Russia.5.sezon.21.seriya.2011.SATRip.avi.torrent. В передаче рассказывается о разных городах России, где живут различные герои. Наша Russia [Сезон- 5 серия- 1] (2010) SATRip. Дай скачать другим, не уходи с раздачи!!! Название: Наша Russia Год выпуска: 2006-2011 Выпущено: Россия, ТНТ Продолжительность: 77 x 00:22:20 Жанр: Комедия, шоу Режиссер: Петр Буслов В ролях: Михаил Галустян, Сергей Светлаков. Главная » ТВ Передачи » Наша Russia (1-5 сезон) (2006-2011).Скачать nasha.rasha.torrent Как тут скачать? Ограничение: Описание: Здесь вы можете скачать или смотреть онлайн полные серии 5 сезона сериала Наша Russia 2011 в mp4 формате прямо с андроид, планшета, psp, мобильного, кпк, айфона, смартфона и других устройств в хорошем качестве и бесплатно. Онлайн.

Записи по теме: